#TITLE:Blaze;
#SUBTITLE:;
#ARTIST:cornandbeans;
#TITLETRANSLIT:;
#SUBTITLETRANSLIT:;
#ARTISTTRANSLIT:;
#CREDIT:;
#BANNER:blaze-bn.PNG;
#BACKGROUND:blaze-bg.png;
#LYRICSPATH:;
#CDTITLE:!cdtitle_ferrari.png;
#MUSIC:Blaze.mp3;
#OFFSET:-0.040;
#SAMPLESTART:39.060;
#SAMPLELENGTH:12.000;
#SELECTABLE:YES;
#BPMS:0.000=175.000;
#STOPS:112.000=0.015
,372.000=0.015
,496.000=0.015
;
#BGCHANGES:;
// cache tags:
#FIRSTBEAT:16.000;
#LASTBEAT:504.000;
#SONGFILENAME:Songs/Music V.I.P ^_^/Blaze  (Ferrari)/Blaze.sm;
#HASMUSIC:1;
#HASBANNER:1;
#MUSICLENGTH:178.058;
// end cache tags

//---------------dance-single - ----------------
#NOTES:
     dance-single:
     :
     Hard:
     7:
     1.000,1.000,1.000,0.017,1.000,1521.000,391.000,3.000,0.000,17.000:
0000
0000
0000
0000
,
0000
0000
0000
0000
,
0000
0000
0000
0000
,
0000
0000
0000
0000
,
1000
1000
1000
1000
,
1000
1000
1000
1000
,
1000
1000
1000
1000
,
1000
1000
1000
1000
,
0100
1000
0001
1000
0100
0001
1000
0010
,
0100
1000
1000
0001
0100
1000
0010
0010
,
0100
1000
0001
1000
0100
0001
1000
0010
,
0100
0001
1000
0010
1000
0100
0001
0010
0100
1000
0010
1100
0011
1000
0011
1000
,
0111
1000
0011
1000
0110
0001
1100
0010
,
0101
1000
1100
0001
0110
1000
0011
0010
,
0101
1000
0011
1000
0110
0001
1100
0010
,
0101
0000
1000
0000
1100
0000
0001
0000
0110
0001
1000
0000
0101
0010
1000
0000
,
0110
1000
0011
1000
0110
0001
1100
0010
,
0101
1000
1100
0001
0110
1000
0011
0010
,
0101
1000
0011
1000
0110
0001
1100
0010
,
0101
0000
1000
0000
1100
0000
0001
0000
0110
0001
1000
0000
0101
0010
1000
0000
,
0100
1000
0001
1000
0100
0001
1000
0010
,
0100
1000
1000
0001
0100
1000
0010
0010
,
0100
1000
0001
1000
0100
0001
1000
0010
,
0100
1000
1000
0001
0100
1000
0010
0010
,
0100
0010
1000
0010
0001
0100
1000
0010
0100
1000
0001
0100
1000
0100
0010
0001
,
0100
0001
1000
0010
1000
0100
0001
0010
0100
0001
1000
0100
0010
1000
0010
0001
,
0100
0010
1000
0100
0001
0100
1000
0010
0100
0010
0001
0100
1000
0001
0010
1000
,
0100
0000
0001
0000
1000
0000
0010
0000
1000
0000
0100
0000
0001
0000
0010
0000
1000
0010
0100
0001
1000
0010
0100
0001
1000
0010
0100
0001
1000
0010
0100
0001
,
1020
0000
0000
0000
0000
0000
0000
0000
0001
0000
0000
0000
1100
0001
1030
0001
,
1100
0001
0100
0010
1001
0100
0010
0001
1100
0001
0100
0010
1001
0100
0010
1000
,
0101
0010
0100
1000
0101
0010
0100
1000
0110
0001
0100
1000
0101
0010
0100
1000
,
0011
0100
0001
0100
1010
1000
0010
1000
0101
0010
1000
0100
0011
0100
0010
0001
,
1010
0100
0010
0100
1010
0001
0010
1000
0110
0001
0100
0010
1001
0010
0100
1000
,
0110
0001
0100
0010
1001
0100
0010
0001
1100
0001
0100
0010
1001
0100
0010
1000
,
0101
0010
0100
1000
0101
0010
0100
1000
0110
0001
0100
1000
0101
0010
0100
1000
,
0011
0100
0001
0100
1001
1000
0010
1000
0101
0010
1000
0100
0011
0100
0010
0001
,
1010
0100
0010
0100
1010
0001
0010
1000
0110
0001
0100
0010
1001
0010
0100
1000
,
0011
0100
0010
1000
0101
1000
0100
0001
0110
1000
0010
0001
1100
0001
1000
0001
,
1010
0100
0010
1000
0101
1000
0100
0001
0110
1000
0100
1000
0110
0001
1000
0001
,
0110
1000
0001
1000
0011
0100
0001
1000
0101
0010
0100
0001
1100
0010
0100
0010
,
0101
1000
0001
0010
0101
1000
0001
0010
0101
1000
0001
0010
0101
1000
0001
0010
,
1001
0100
0010
1000
0011
1000
0100
0001
0110
1000
0010
0001
1100
0001
1000
0001
,
1010
0100
0010
1000
0011
1000
0100
0001
0110
1000
0100
1000
0110
0001
1000
0001
,
0110
1000
0001
1000
0011
0100
0001
1000
0101
0010
0001
0100
0011
1000
0010
1000
,
0110
1000
0001
0010
0101
1000
0001
0010
0101
1000
0001
0010
0101
1000
0001
0010
,
1100
0001
0100
0010
1001
0100
0010
0001
1010
0001
0100
0010
1001
0100
0010
1000
,
0101
0010
0100
1000
0101
0010
0100
1000
0110
0001
0100
1000
0101
0010
0100
1000
,
0011
0100
0001
0100
1001
1000
0010
1000
0101
0010
1000
0100
0011
0100
0010
0001
,
1010
0100
0010
0100
1010
0001
0010
1000
0110
0001
0100
0010
1001
0010
0100
1000
,
0110
0001
0100
0010
1001
0100
0010
0001
1010
0001
0100
0010
1001
0100
0010
1000
,
0101
0010
0100
1000
0101
0010
0100
1000
0110
0001
0100
1000
0101
0010
0100
1000
,
0011
0100
0001
0100
1001
1000
0010
1000
0101
0010
1000
0100
0011
0100
0010
0001
,
1010
0100
0010
0100
1010
0001
0010
1000
0110
0001
0100
0010
1001
0010
0100
1000
,
0100
0001
0100
0010
1000
0100
0010
0001
1000
0001
0100
0010
1000
0100
0010
1000
,
0001
0010
0100
1000
0001
0010
0100
1000
0010
0001
0100
1000
0001
0010
0100
1000
,
0010
0100
0001
0100
1000
1000
0010
1000
0001
0010
1000
0100
0010
0100
0010
0001
,
0010
0100
0010
0100
1000
0001
0010
1000
0100
0001
0100
0010
0001
0010
0100
1000
,
0100
0001
0100
0010
1000
0100
0010
0001
1000
0001
0100
0010
1000
0100
0010
1000
,
0001
0010
0100
1000
0001
0010
0100
1000
0010
0001
0100
1000
0001
0010
0100
1000
,
0010
0100
0001
0100
1000
1000
0010
1000
0001
0010
1000
0100
0010
0100
0010
0001
,
0010
0100
0010
0100
1000
0001
0010
1000
0100
0001
0100
0010
0001
0010
0100
1000
,
0012
0100
0010
0100
0000
0100
0010
0100
,
0000
0103
0010
0100
0000
0100
0010
0001
,
0000
0100
0010
0100
0000
0100
0010
0100
,
0000
0100
0010
0100
0000
0100
0010
0001
,
1000
0100
0010
0100
1000
0100
0010
0100
,
1000
0100
0010
0100
1000
0100
0010
0001
,
1000
0100
0010
0100
1000
0100
0010
0100
,
1000
0100
0010
0100
1000
0100
0010
0001
,
1110
0110
1001
0100
0011
1000
0101
0110
,
1100
0100
0011
1000
1100
0100
0011
0001
,
1100
0010
0101
1100
0110
1100
0101
0010
,
1001
0100
0011
0110
1100
1010
0011
1100
,
0110
1000
0011
0110
1001
0110
0101
1100
,
0010
1001
0101
0110
1100
0110
0011
1100
,
0110
0001
1100
0010
0100
1010
0001
1100
,
0110
0110
1001
1100
1010
1010
0011
1001
,
1100
0010
0001
0000
0000
0000
0110
0000
0000
0000
0000
0000
1001
0000
0000
0000
0000
0000
0100
0000
0000
0000
0000
0000
1011
0000
0000
0000
0000
0000
1000
0000
0000
0000
0000
0000
0101
0000
0000
0000
0000
0000
0110
0000
0000
0000
0000
0000
,
1011
0100
0011
0010
1101
0010
0101
0001
,
0110
0001
1000
0000
0000
0000
0010
0000
0000
0000
0000
0000
0101
0000
0000
0000
0000
0000
1100
0000
0000
0000
0000
0000
0111
0000
0000
0000
0000
0000
1100
0000
0000
0000
0000
0000
0101
0000
0000
0000
0000
0000
1000
0000
0000
0000
0000
0000
,
0111
1000
0101
1100
1110
1100
0011
1100
,
1010
0001
0100
0000
0000
0000
1000
0000
0000
0000
0000
0000
0011
0000
0000
0000
0000
0000
0110
0000
0000
0000
0000
0000
1101
0000
0000
0000
0000
0000
0110
0000
0000
0000
0000
0000
0011
0000
0000
0000
0000
0000
1100
0000
0000
0000
0000
0000
,
0110
0011
0101
0110
1110
1010
0011
1100
,
1010
0100
0001
0000
0000
0000
0010
0000
0000
0000
0000
0000
1001
0000
0000
0000
0000
0000
0100
0000
0000
0000
0000
0000
0111
0000
0000
0000
0000
0000
1100
0000
0000
0000
0000
0000
0001
0000
0000
0000
0000
0000
1100
0000
0000
0000
0000
0000
,
1011
1010
0101
0110
1110
1010
0011
1001
,
1001
0010
0100
0000
0000
0000
0010
0000
0000
0000
0000
0000
1000
0000
0000
0000
0000
0000
0000
0000
0000
0000
0000
0000
0011
0000
0000
0000
0000
0000
0000
0000
0000
0000
0000
0000
0100
0000
0000
0000
0000
0000
0010
0000
0000
0000
0000
0000
,
1001
0001
1100
0001
,
1010
0001
0100
0000
0000
0000
0000
0000
0000
0000
0000
0000
0100
0000
0000
0000
0000
0000
1000
0000
0000
0000
0000
0000
0011
0000
0000
0000
0000
0000
1000
0000
0000
0000
0000
0000
0100
0000
0000
0000
0000
0000
0000
0000
0000
0000
0000
0000
,
0101
0000
0100
1000
0110
1000
0001
0100
,
1010
0001
0100
0000
0000
0000
0000
0000
0000
0000
0000
0000
0001
0000
0000
0000
0000
0000
0010
0000
0000
0000
0000
0000
1010
0000
0000
0000
0000
0000
0100
0000
0000
0000
0000
0000
0001
0000
0000
0000
0000
0000
0100
0000
0000
0000
0000
0000
,
0010
0001
0100
0010
1100
0010
0001
0100
,
0110
0001
1000
0000
0000
0000
0000
0000
0000
0000
0000
0000
1000
0000
0000
0000
0000
0000
0000
0000
0000
0000
0000
0000
0010
0000
0000
0000
0000
0000
1000
0000
0000
0000
0000
0000
0000
0000
0000
0000
0000
0000
1000
0000
0000
0000
0000
0000
,
0011
0010
0100
0100
1010
0010
0001
0001
,
1020
0000
0000
0000
0000
0000
0000
0000
0001
0000
0000
0000
1130
0001
1000
0001
,
1110
0001
0100
0010
1001
0100
0010
0001
1100
0001
1010
0100
1001
0100
0011
1000
,
0101
0010
0100
1000
0101
0010
1001
0100
1010
0001
0110
1000
0101
0010
1001
0100
,
0011
0100
0001
0100
1010
1000
0010
1000
0101
0010
1001
0100
0011
0100
1010
0001
,
1100
0000
0000
0001
0000
0000
0010
0000
0000
0100
0000
0000
1010
0000
0000
0001
0100
0000
0010
0000
0001
1000
0000
0000
0110
0000
0000
0001
0000
0000
0100
0000
0000
0010
0000
0000
1001
0000
0000
0010
0001
0000
0100
0000
0010
1000
0000
0000
,
0101
0010
0100
0010
1001
0100
1010
0001
1100
0001
1010
0100
1001
0100
0011
1000
,
0101
0010
0100
1000
0101
0010
1001
0100
1010
0001
0110
1000
0101
0010
1001
0100
,
0011
0100
0001
0100
1001
1000
0010
1000
0101
0010
1001
0100
0011
0100
1010
0001
,
1100
0000
0000
0001
0000
0000
0010
0000
0000
0100
0000
0000
1010
0000
0000
0001
0100
0000
0010
0000
0001
1000
0000
0000
0110
0000
0000
0001
0000
0000
0100
0000
0000
0010
0000
0000
1001
0000
0000
0010
1000
0000
0100
0000
0001
1000
0000
0000
,
0011
0100
0010
1000
0101
1000
0100
0001
0110
1000
0101
0010
1100
0001
1010
0001
,
1100
0001
0010
1000
0101
1000
0100
0001
0110
1000
0101
1000
0110
0001
1010
0001
,
0110
1000
0001
1000
0011
0100
0001
1000
0110
0001
1010
0100
1001
0010
1100
0010
,
0101
0000
0000
1000
0000
0000
0001
0000
0000
0010
0000
0000
0101
0000
0000
1000
0010
0000
0001
0000
1000
0010
0000
0000
0101
0000
0000
1000
0000
0000
0001
0000
0000
0010
0000
0000
0101
0000
0000
1000
0010
0000
0001
0000
0100
0010
0000
0000
,
1001
0100
0010
1000
0011
1000
0100
0001
0110
0001
1010
0001
1100
0010
1001
0010
,
1100
0001
0010
1000
0011
1000
0100
0001
0110
1000
0101
1000
0110
0001
1010
0001
,
0110
1000
0001
1000
0011
0100
0001
1000
0101
0010
1001
0100
0011
1000
0101
1000
,
0110
0000
0000
1000
0000
0000
0001
0000
0000
0010
0000
0000
0101
0000
0000
1000
0010
0000
0001
0000
1000
0010
0000
0000
0101
0000
0000
1000
0000
0000
0001
0000
0000
0010
0000
0000
0101
0000
0000
1000
0010
0000
0001
0000
0100
0010
0000
0000
,
1100
0001
0100
0010
1001
0100
0010
0001
1010
0001
1100
0010
1001
0100
0011
1000
,
0101
0010
0100
1000
0101
1000
0011
1000
0101
0010
1001
0010
1100
0010
0101
1000
,
0011
0100
0001
0100
1001
1000
0010
1000
0101
0010
1001
0100
0011
0100
1001
0100
,
1010
0000
0000
0100
0000
0000
0010
0000
0000
0100
0000
0000
1010
0000
0000
0001
0100
0000
0010
0000
0001
1000
0000
0000
0110
0000
0000
0001
0000
0000
0100
0000
0000
0010
0000
0000
1001
0000
0000
0010
1000
0000
0100
0000
0001
1000
0000
0000
,
0110
0001
0100
0010
1001
0100
1010
0100
0011
1000
0101
0010
1001
0100
0011
1000
,
0101
0010
0100
1000
0101
0010
1001
0100
1010
0001
0110
1000
0011
1000
0101
0010
,
1100
0010
0001
0100
1001
1000
0010
1000
0011
1000
0101
0010
1100
0010
1001
0100
,
1010
0000
0000
0100
0000
0000
0010
0000
0000
0100
0000
0000
1010
0000
0000
0001
0100
0000
0010
0000
0001
1000
0000
0000
0110
0000
0000
0001
0000
0000
0100
0000
0000
0010
0000
0000
1001
0000
0000
0010
0001
0000
0100
0000
0010
1000
0000
0000
,
0100
0001
0100
0010
1000
0100
0010
0001
1000
0001
0100
0010
1000
0100
0010
1000
,
0001
0010
0100
1000
0001
0010
0100
1000
0010
0001
0100
1000
0001
0010
0100
1000
,
0010
0100
0001
0100
1000
1000
0010
1000
0001
0010
1000
0100
0010
0100
0010
0001
,
0010
0100
0010
0100
1000
0001
0010
1000
0100
0001
0100
0010
0001
0010
0100
1000
,
0100
0001
0100
0010
1000
0100
0010
0001
1000
0001
0100
0010
1000
0100
0010
1000
,
0001
0010
0100
1000
0001
0010
0100
1000
0010
0001
0100
1000
0001
0010
0100
1000
,
0011
0000
0100
0000
0000
0010
0000
1000
,
0010
0000
0000
0001
0100
0010
1100
0000
0000
0001
0010
0100
,
1011
0000
0000
0000
;
